#TITLE:Blood on Fire;
#SUBTITLE:;
#ARTIST:Aaa;
#TITLETRANSLIT:;
#SUBTITLETRANSLIT:;
#ARTISTTRANSLIT:;
#CREDIT:;
#BANNER:Blood on Fire_logo.jpg;
#BACKGROUND:Blood on Fire_bg.jpg;
#LYRICSPATH:;
#CDTITLE:Lan.png;
#MUSIC:Blood on Fire.mp3;
#OFFSET:-0.060;
#SAMPLESTART:100.000;
#SAMPLELENGTH:12.000;
#SELECTABLE:YES;
#BPMS:0.000=155.010;
#STOPS:;
#BGCHANGES:;
// cache tags:
#FIRSTBEAT:4.000;
#LASTBEAT:501.500;
#SONGFILENAME:Songs/lan sky/Blood on Fire/Blood on Fire.sm;
#HASMUSIC:1;
#HASBANNER:1;
#MUSICLENGTH:204.137;
// end cache tags

//---------------dance-single - sky----------------
#NOTES:
     dance-single:
     sky:
     Hard:
     10:
     0.945,1.000,1.000,0.186,0.938,1106.000,207.000,38.000,0.000,6.000:

0000
0000
0000
0000
,
1020
0000
0032
0000
,
0203
0000
0320
0000
,
2030
0000
3200
0000
,
0320
0000
0230
0000
,
0302
0000
0203
0000
,
0320
0000
2030
0000
,
3200
0000
0320
0000
,
0230
0000
0320
0000
,
1030
0001
0100
0010
0001
0010
1000
0100
0010
0001
0100
0010
1000
0010
0100
0001
,
0010
1000
0100
0010
0001
0100
1000
0010
0100
0010
0100
0001
1000
0010
0100
0001
,
1000
0001
0100
0010
0001
0010
1000
0100
0010
0001
0100
0010
1000
0010
0100
0001
,
0010
1000
0100
0010
0001
0100
1000
0010
0100
0010
0100
0001
1000
0010
0100
0001
,
0010
0001
0100
0010
1000
0100
0010
0100
0001
0010
0100
0010
0100
1000
0100
0010
,
0100
0001
0010
0100
0010
1000
0010
0100
1000
0100
0010
0100
0001
0010
0100
0010
,
1000
0100
0010
0100
0001
0010
0100
0010
1000
0100
0010
0100
0001
0010
0100
0010
,
1001
0010
0100
1000
0100
0010
0001
0010
0100
1000
0100
0010
0100
0010
0001
0010
,
0100
0010
0100
0010
0100
0010
0100
0010
,
0100
0010
0100
0010
0100
0010
0100
0010
,
0001
0010
0001
0010
0001
0010
0001
0010
,
0001
0010
0001
0010
0001
0010
0001
0010
,
1100
0010
1000
0010
1000
0010
1000
0010
,
1100
0010
1000
0010
1000
0010
1000
0010
,
1001
0100
0001
0100
1001
0100
0001
0100
,
0011
0100
1000
0100
0010
0100
1000
0100
0010
0001
0010
0100
1000
0100
0010
0001
,
1100
0010
0101
0010
1001
0100
0011
0100
,
0101
0010
1100
0001
0110
1000
0011
0100
,
1001
0010
0101
0010
0110
1000
0011
0100
,
1001
0010
1100
0010
0101
0010
0101
0101
,
1010
0100
0011
0100
1010
0001
0011
0100
,
0011
0100
1010
0010
1100
0001
0110
0010
,
1001
0000
1001
0000
,
1001
0000
0000
0000
1001
0000
0000
0000
1001
0000
1001
0000
0010
0100
1000
0100
,
0001
0010
0100
0010
0001
0010
0001
0100
0010
0100
0010
0100
1000
0100
0010
1000
,
0001
0010
0100
0010
0100
1000
0001
0100
0010
0001
0100
0010
0001
1000
0110
0100
,
0001
0010
0100
0010
0001
1000
0001
0100
0010
0100
0001
0100
1000
0001
0010
1000
,
0001
1000
0100
0010
0100
1000
0010
0100
0010
0001
0100
0010
1100
0000
0000
0000
,
0001
0100
0001
0010
0100
1000
0100
0010
0001
1000
0100
0010
1000
0000
0100
0000
,
0100
1000
0010
0100
0010
0001
0100
0010
0100
1000
0010
0100
0001
0100
1000
0000
,
0100
0010
0100
0010
0100
1000
0100
0010
0100
0010
0001
0010
0100
0000
0010
0000
,
0001
0010
0100
0010
0100
0010
0100
1000
0100
0010
0001
0100
0011
0000
0000
0000
,
1010
0000
0000
0000
0000
0100
0000
0100
,
1010
0000
0000
0100
0000
0100
0000
0000
,
1001
0000
0000
0010
0000
0010
0000
0010
,
1100
1100
0000
0001
0000
0001
0000
0000
,
1010
1010
1010
1010
1010
1010
1010
1010
,
0011
0011
0011
0011
0011
0011
0011
0000
,
0100
1000
0010
0100
0010
0001
0010
0000
1000
0100
0010
0100
0010
0001
0010
0000
,
0001
0010
0100
0010
0100
1000
0100
0010
0100
0010
0001
0010
0100
0010
0100
1000
,
0101
0000
0000
0101
0000
0000
0101
0000
2000
0000
0000
0000
0000
0000
0000
0000
,
3011
0100
1010
0001
0110
0001
1100
0010
,
0101
0010
1001
0100
0011
0100
0101
0010
,
1100
0001
0110
1000
0011
0100
1001
0010
,
0101
0000
0010
0000
0110
0000
1000
0000
0011
0000
0011
0000
1001
0000
0001
0010
,
1100
0010
0101
0010
0101
1000
1010
0100
,
0011
0000
0100
0000
1010
0000
0001
0100
0010
0000
0001
0010
0100
1000
0110
0000
,
0000
0000
0001
0010
0100
1000
0110
0000
0000
0000
1000
0100
0010
0001
0110
0000
,
0000
0000
0001
0010
0100
1000
0110
0000
0000
0000
1000
0000
1000
0100
0010
0001
,
0220
0000
0000
0000
0000
0000
0000
0000
0000
0000
1331
0000
1001
0000
1001
0100
,
0010
0000
0000
0000
,
0011
0000
0011
0000
0011
0000
0011
0000
0010
0100
1000
0100
0010
0100
0010
0001
,
2010
0000
0000
0000
,
3200
0000
0000
0000
,
0302
0000
0000
0000
,
0203
0000
2300
0000
,
3020
0000
0000
0000
,
2030
0000
0000
0000
,
3002
0000
0023
0000
,
0230
0000
0320
0000
,
1130
0001
0100
0010
0001
0010
1000
0100
0010
0001
0100
0010
1000
0010
0100
0001
,
0010
1000
0100
0010
0001
0100
1000
0010
0100
0001
0100
0010
1000
0010
0100
0001
,
1000
0001
0100
0010
0001
0010
1000
0100
0010
0001
0100
0010
1000
0010
0100
0001
,
0010
1000
0100
0010
0001
0100
1000
0010
0100
0001
0100
0001
1000
0010
0100
0001
,
1000
0001
0100
0010
1000
0100
0010
0100
0001
0010
1000
0010
0100
1000
0001
0010
,
0100
0001
0010
0100
0010
1000
0010
0100
1000
0100
0010
0100
0001
0010
0100
0010
,
1000
0100
0010
0100
0001
0010
0100
0010
1000
0100
0010
0100
0001
0010
0100
0010
,
1000
0010
0100
1000
0001
0100
0001
0010
0100
1000
0100
0010
0100
0010
0001
0010
,
1001
0000
0000
0000
,
1001
0000
0000
0000
,
1001
0000
0000
0000
,
1001
0000
0000
0000
,
0011
0011
0011
0011
0000
0000
0110
0110
0110
0110
0000
0000
,
0101
0101
0101
0101
0000
0000
1010
1010
1010
1010
0000
0000
,
1001
1001
1001
1001
,
0011
0011
0011
0011
0011
0011
0011
0011
0011
0011
0011
0011
,
2200
0000
0000
0000
,
3311
0000
0000
0000
,
0011
0100
1010
0001
0110
0001
1100
0010
,
0101
0010
1001
0100
0011
0100
0101
0010
,
1100
0001
0110
1000
0011
0100
1001
0010
,
0101
0000
0010
0000
0110
0000
1000
0000
0011
0000
0011
0000
1001
0000
0001
0010
,
1100
0010
0101
0010
0101
1000
1010
0100
,
0011
0000
0100
0000
1010
0000
0001
0100
0010
0000
0001
0100
0010
1000
0110
0000
,
0000
0000
0001
0100
0010
1000
0110
0000
0000
0000
1000
0010
0100
0001
0110
0000
,
0000
0000
0001
0100
0010
1000
0110
0000
0000
0000
1000
0000
0011
0100
1000
0100
,
0022
0000
0000
0000
,
1133
0000
0000
0000
0000
0000
0000
0000
0000
0000
0101
0000
0010
0000
0100
1000
,
0011
0000
0000
1010
0000
1010
0000
1010
,
0000
1010
0000
1010
0000
0110
0110
0110
,
1001
0100
1010
0100
0011
0100
0011
0100
,
1100
0000
0010
0000
0110
0000
0010
0000
0101
0000
0101
0000
0101
0000
1000
0100
,
0011
0010
0110
0100
1010
0100
0011
0100
,
0001
0000
0010
0000
0101
0000
0010
0100
0001
0000
1000
0100
0010
0001
1010
0000
,
0000
0000
1000
0010
0100
0001
1010
0000
0000
0000
0010
0100
0010
0001
1100
0000
,
0000
0000
0001
0100
0010
0001
1010
0000
0000
0000
0100
0000
0100
0001
0010
0100
,
2002
0000
0000
0000
0000
0000
0000
0000
0000
0000
3013
0000
0010
0000
0010
0100
,
0011
0000
0000
0000
,
1000
0001
0100
0010
0001
0010
1000
0100
0010
0001
0100
0010
1000
0010
0100
0001
,
0010
1000
0100
0010
0001
0100
1000
0010
0100
0010
0100
0001
1000
0010
0100
0001
,
1000
0001
0100
0010
0001
0010
1000
0100
0010
0001
0100
0010
1000
0010
0100
0001
,
0010
1000
0100
0010
0001
0100
1000
0010
0100
0010
0001
0010
0100
1000
0010
0100
,
0010
0001
0100
0010
1000
0100
0010
0100
0001
0010
0100
0010
0100
1000
0100
0010
,
0100
0001
0010
0100
0010
1000
0010
0100
1000
0100
0010
0100
0001
0010
0100
0010
,
1000
0100
0010
0100
0001
0010
0100
0010
1000
0100
0010
0100
0010
0010
0010
0010
,
1100
0000
0000
0000
0000
0000
0000
0000
0011
0100
1000
0001
0010
0100
0010
0001
,
1000
0001
0100
0010
0001
0010
1000
0100
0010
0001
0100
0010
1000
0010
0100
0001
,
0010
1000
0100
0010
0001
0100
1000
0010
0100
0010
0100
0001
1000
0010
0100
0001
,
1000
0001
0100
0010
0001
0010
1000
0100
0010
0001
0100
0010
1000
0010
0100
0001
,
0010
1000
0100
0010
0001
0100
1000
0010
0100
0010
0001
0010
0100
1000
0010
0100
,
0010
0001
0100
0010
1000
0100
0010
0100
0001
0010
0100
0010
0100
1000
0100
0010
,
1100
0001
0010
0100
0010
1000
0010
0100
1000
0100
0010
0100
0001
0010
0100
0010
,
1001
0010
0100
0010
0100
1000
0100
0010
1001
0100
0010
0100
0010
0010
0010
0010
,
1001
0000
0000
0000
,
0202
0000
0000
0000
,
0000
0000
0000
0000
,
0000
0000
0303
1010
0000
0000
0000
0000
;
